دانلود اپلیکشن می‌بی‌نیم

دانلود

BBC Freeview HD 3D Preview :- Planet Dinosaur

مستند
برچسب ها: ،  
۱۵۴ نمایش
منتشر شده در: دو سال پیش

BBC Freeview HD 3D Preview :-Planet Dinosaur

Uploaded to YouTube to test "NoGlasses" Parallel 3D Mode. You may need to press "swap left-Right" for correct frame order.

Source Video Properties:-

Video
Format : AVC
Format/Info : Advanced Video Codec
Format profile : High@L4.0
Format settings, CABAC : Yes
Format settings, ReFrames : 4 frames
Codec ID : avc1
Codec ID/Info : Advanced Video Coding
Duration : 3mn 59s
Bit rate : 5 658 Kbps
Width : 1 920 pixels
Height : 1 080 pixels
Display aspect ratio : 16:9
Frame rate mode : Constant
Frame rate : 25.000 fps
Color space : YUV
Chroma subsampling : 4:2:0
Bit depth : 8 bits
Scan type : MBAFF
Scan order : Top Field First
Bits/(Pixel*Frame) : 0.109
Stream size : 161 MiB (95%)
Color primaries : BT.709-5, BT.1361, IEC 61966-2-4, SMPTE RP177
Transfer characteristics : BT.709-5, BT.1361
Matrix coefficients : BT.709-5, BT.1361, IEC 61966-2-4 709, SMPTE RP177

Audio
Format : AAC
Format/Info : Advanced Audio Codec
Format profile : LC
Codec ID : 40
Duration : 3mn 59s
Duration_LastFrame : -21ms
Bit rate mode : Variable
Bit rate : 315 Kbps
Channel(s) : 6 channels
Channel positions : Front: L C R, Side: L R, LFE
Sampling rate : 48.0 KHz
Compression mode : Lossy
Stream size : 8.99 MiB (5%)
Language : English

دیدگاه ها